Комната 13 / Hotel 13 / Сезон: 1-2 / Серии: 1-121 из 240 (Деннис Ботс) [2012-2013, Германия, Комедия, детский, семейный, SATRip] MVO (Детский)

Ответить на тему
Статистика раздачи [Обновить пиров]
Размер:  17.87 GB   |    Зарегистрирован:  6 дней   |    Скачан:  0 раз

Полного источника не было: Никогда

 
   
 
 
 
Автор Сообщение

igp360.com

Создавать темы 13-Фев-2018 21:21

[Цитировать]

Комната 13 / Hotel 13
Год выхода: 2012-2013
Страна: Германия
Жанр: Комедия, детский, семейный
Продолжительность: 121 х ~ 00:13:00
Перевод: Профессиональный (многоголосый закадровый) телеканал "Детский"
Субтитры: нет
Режиссёр: Деннис Ботс
В ролях: Патрик Баер, Карола Шнелль, Геррит Кляйн, Марсель Глауше, Питер Ноттмейер, Йорг Мокаддам, Илька Тейхмюллер, Ханна Шольц
Описание: Немецкий сериал «Комната 13» рассказывает о шести подростках, которые летом подрабатывают в красивом отеле на берегу моря. Том и Анна устраивают праздники для постояльцев, Фло работает помощником повара на кухне, Виктория исполняет любые пожелания гостей, а Джек и вовсе сын владельца отеля. Руководит же ими директор отеля Анна Лив. Однако не все так просто в этом отеле, ведь необычная комната номер 13 скрывает в себе тайны, связанные с загадочными часами и перемещениями во времени.
Ссылка на предыдущие и альтернативные раздачи: [url=tracker.php?g=foreign_serials&nm=189,2366,842,1102&nm=Hotel+13]http://Torrentc/forum/tracker.php?g=foreign_serials&nm=189,2366,842,1102&nm=Hotel+13[/url]
:
Сэмпл: http://multi-up.com/968289
Качество: SATRip
Формат файла: AVI
Видео кодек: XviD
Аудио кодек: AC3
Видео: 704x400 (1.76:1), 25 fps, XviD build 50 ~1484 kbps avg, 0.21 bit/pixel
Аудио: 48 kHz, AC3 Dolby Digital, 2/0 (L,R) ch, ~192.00 kbps avg
Доп.инфо реклама отсутствует

MediaInfo

General
Complete name : D:\Komnata.13.XviD.2012.SATRip.\01.avi
Format : AVI
Format/Info : Audio Video Interleave
File size : 151 MiB
Duration : 12mn 32s
Overall bit rate : 1 687 Kbps
Writing application : VirtualDubMod 1.5.10.3 | www.virtualdub-fr.org || (build 2550/release)
Writing library : VirtualDubMod build 2550/release
Video
ID : 0
Format : MPEG-4 Visual
Format profile : Advanced [email protected]
Format settings, BVOP : 2
Format settings, QPel : No
Format settings, GMC : No warppoints
Format settings, Matrix : Custom
Codec ID : XVID
Codec ID/Hint : XviD
Duration : 12mn 32s
Bit rate : 1 485 Kbps
Width : 704 pixels
Height : 400 pixels
Display aspect ratio : 16:9
Frame rate : 25.000 fps
Color space : YUV
Chroma subsampling : 4:2:0
Bit depth : 8 bits
Scan type : Progressive
Compression mode : Lossy
Bits/(Pixel*Frame) : 0.211
Stream size : 133 MiB (88%)
Writing library : XviD 1.2.1 (UTC 2008-12-04)
Audio
ID : 1
Format : AC-3
Format/Info : Audio Coding 3
Mode extension : CM (complete main)
Format settings, Endianness : Big
Codec ID : 2000
Duration : 12mn 32s
Bit rate mode : Constant
Bit rate : 192 Kbps
Channel(s) : 2 channels
Channel positions : Front: L R
Sampling rate : 48.0 KHz
Bit depth : 16 bits
Compression mode : Lossy
Stream size : 17.2 MiB (11%)
Alignment : Split accross interleaves
Interleave, duration : 40 ms (1.00 video frame)
Interleave, preload duration : 500 ms

Скриншоты


Внимание! Раздача ведётся путём добавления новых серий!

Внимание! Раздача ведётся путём добавления новых серий; при каждом добавлении создаётся новый торрент.
Чтобы начать докачку новой серии, пользователям необходимо сделать следующее:
1. Остановить скачивание.
2. Удалить старый торрент у себя из клиента (старые серии удалять не надо).
3. Скачать новый торрент и запустить его у себя в клиенте вместо старого, при этом указать клиенту путь в старую папку куда и должно происходить скачивание новых серий.

Ваш клиент при этом должен произвести хеширование (проверку) старой папки (если не производит сам - помогите ему сделать это), и будет докачивать только те серии которых у вас ещё нет. Старые серии при этом не удаляются, а продолжают раздаваться!
Eсли вы уже удалили старые серии, то предотвратить повторную закачку старых серий можно, отжав галочку в соответсвующих местах при запуске нового торрента.


[igp360.com]_t_4721065.torrent
Торрент: Зарегистрирован ·  [ 2018-02-13 21:21 ] ·  523bf417bde2ee416b9d51db998d9495f9955886

96 KB

Статус: проверено
Скачан: 0 раз
Размер: 17.87 GB
Оценка: 
(Голосов: 0)
Сказали спасибо: 0  Спасибо
Похожие темы
[Профиль]    [ЛС]
Показать сообщения:    
Ответить на тему

Текущее время: Сегодня 16:21

Часовой пояс: GMT + 7



Вы не можете начинать темы
Вы не можете отвечать на сообщения
Вы не можете редактировать свои сообщения
Вы не можете удалять свои сообщения
Вы не можете голосовать в опросах
Вы не можете прикреплять файлы к сообщениям
Вы можете скачивать файлы