[TR24][OF] Hypp fractal - Time and Space - 2018 (Techno, House, Abstract, Breaks, IDM)

Ответить на тему
Статистика раздачи [Обновить пиров]
Размер:  619 MB   |    Зарегистрирован:  1 месяц 3 дня   |    Скачан:  2 раза

Полного источника не было: 24 дня

 
   
 
 
 
Автор Сообщение

igp360.com

Создавать темы 20-Янв-2018 20:48

[Цитировать]

Hypp fractal / Time and Space
Формат файла записи/Источник записи: [TR24][OF]
Наличие водяных знаков: Нет
Год издания/переиздания диска: 2018
Жанр: Techno, House, Abstract, Breaks, IDM
Продолжительность: 0:54:51
Наличие сканов в содержимом раздачи: Нет
Формат файла: FLAC (*.flac)
Тип рипа: tracks
Разрядность: 24/44,1
Формат файла: WAV (flac.ape.wv)
Количество каналов: 2.0
Источник (релизер): vasya krivyh (авторская раздача)
Треклист:
01. Precious 5:10
02. Shift 6:24
03. Forest 5:30
04. Waves 7:49
05. Fireflies 5:25
06. Popcorn 4:52
07. Regret 6:55
08. Frozen Summer 3:49
09. Envane 9:00

Лог проверки качества

foobar2000 1.3.8 / Замер динамического диапазона (DR) 1.1.1Дата отчёта: 2018-01-08 13:50:29
--------------------------------------------------------------------------------Анализ: Hypp fractal / Time and space--------------------------------------------------------------------------------
DR Пики RMS Продолжительность трека--------------------------------------------------------------------------------DR5 0.00 дБ -6.45 дБ 5:10 01-PreciousDR5 0.00 дБ -6.08 дБ 6:24 02-ShiftDR6 0.00 дБ -7.33 дБ 5:30 03-ForestDR7 0.00 дБ -8.68 дБ 7:49 04-WavesDR7 -0.04 дБ -8.54 дБ 5:25 05-FirefliesDR8 0.00 дБ -9.10 дБ 4:52 06-PopcornDR6 0.00 дБ -7.00 дБ 6:55 07-RegretDR7 0.00 дБ -9.24 дБ 3:49 08-Frozen summerDR5 0.00 дБ -7.35 дБ 9:00 09-Envane--------------------------------------------------------------------------------
Количество треков: 9Реальные значения DR: DR6
Частота: 44100 ГцКаналов: 2Разрядность: 24Битрейт: 1671 кбит/сКодек: FLAC================================================================================

Спектрограммы

Waves
Shift


[igp360.com]_t_5507165.torrent
Торрент: Зарегистрирован ·  [ 2018-01-20 20:42 ] ·  bf5308028145585615d1297d6303355d7d3a79dd

13 KB

Статус: проверено
Скачан: 2 раз
Размер: 619 MB
Оценка: 
(Голосов: 0)
Сказали спасибо: 0  Спасибо
Похожие темы
[Профиль]    [ЛС]
Показать сообщения:    
Ответить на тему

Текущее время: Сегодня 17:24

Часовой пояс: GMT + 7



Вы не можете начинать темы
Вы не можете отвечать на сообщения
Вы не можете редактировать свои сообщения
Вы не можете удалять свои сообщения
Вы не можете голосовать в опросах
Вы не можете прикреплять файлы к сообщениям
Вы можете скачивать файлы